11:11:11. Liczba przeznaczenia *2011* [DVDRip.XviD] [Lektor PL] torrent, chomikuj

Baner Torrentos
Sprawdź już teraz! (LINK)

produkcji: Hiszpania, USA
typ: Horror
Data premiery: 11.11.2011 – Świat
Reżyser: Darren Lynn Bousman
Scenarzysta: Darren Lynn Bousman
Zdjęcia: Joseph White

Po tragicznej śmierci żony i dziecka, słynny amerykański pisarz Joseph Crone, udaje się do Barcelony, by pogodzić się z bratem i umierającym ojcem. Niespodziewanie, jego życie przybiera zupełnie inny kierunek, gdy zaczyna doświadczać szeregu dziwnych wydarzeń, mających związek z liczbą 11.

Michael Landes: Samuel
Wendy Glenn: Sadie
Timothy Gibbs: Joseph Crone
Salomé Jiménez:Sarah
Denis Rafter: Richard Crone
Benjamin Cook: David

http://www.filmweb.pl/film/11%3A11%3A11.+Liczba+przeznaczenia-2011-596262

Format: AVI
Format/Info: Audio Video Interleave
File size: 697 MiB
Duration: 1h 32mn
Overall bit rate: 1 050 Kbps
Writing application: VirtualDubMod 1.5.10.2 (build 2540/release)
Writing library: VirtualDubMod build 2540/release

Video
ID: 0
Format: MPEG-4 Visual
Format profile: Advanced [email protected]
Format settings, BVOP: 2
Format settings, QPel: No
Format settings, GMC: No warppoints
Format settings, Matrix: Default (MPEG)
Codec ID: XVID
Codec ID/Hint: XviD
Duration: 1h 32mn
Bit rate: 912 Kbps
Width: 640 pixels
Height: 272 pixels
Display aspect ratio: 2.35:1
Frame rate: 25.k klatek na sekundę
Color space: YUV
Chroma subsampling: 4:2:0
Bit depth: 8 bits
Scan type: Progressive
Compression mode: Lossy
Bits/(Pixel*Frame): 0.210
Stream size: 606 MiB (87%)
Writing library: XviD 1.2.1 (UTC 2008-12-04)

Audio
ID: 1
Format: MPEG Audio
Format version: Version 1
Format profile: Layer 3
Mode: Joint stereo
Codec ID: 55
Codec ID/Hint: MP3: –
Duration: 1h 32mn
Bit rate mode: Constant
Bit rate: 128 Kbps
Channel(s): 2 kanały
Sampling rate: 48.0 KHz
Compression mode: Lossy
Stream size: 85.1 MiB (12%)
Alignment: Aligned on interleaves
Interleave, duration: 40 ms (1.00 video frame)
Interleave, preload duration: 504 ms
Writing library: LAME3.99r
Encoding settings: -m j -V 4 -q 2 -lowpass 17 -b 128

Rozmiar: 697.50 MiB

sprawdź horoskop sprawdź horoskop