Gomorra 2008 [DVDrip.XviD] [Ita] torrent, chomikuj

Baner Torrentos
Sprawdź już teraz! (LINK)

produkcja: Włochy
gatunek: Dramat, Kryminał

Opis:

Pięć historii zostało splecionych w tym drastycznym scenariuszu, osadzonym w okrutnym i pozornie fikcyjnym świecie, który jest głęboko zakorzeniony w rzeczywistości.

Don Ciro jest il sottomarino. Płaci rodzinom więźniów, którzy są członkami jego klanu, klanu, który ma niekwestionowaną władzę na terytorium. Jest czujny, dyskretny i wykonuje swoją pracę bez zbytniego zaangażowania. Ale w pewnym momencie klan zaczyna się rozpadać. Don Ciro nie wie już, czyich słuchać rozkazów. Zaczyna bać się o własne życie.

Totò ma 13 lat i nie może się doczekać, kiedy będzie „dorosły”. Zaczyna więc swoją naukę w szkole życia, aż pewnego dnia staje przed trudnym wyborem, musi podjąć nieodwracalną decyzję.

Marco i Ciro myślą, że żyją w filmie Briana de Palmy, ale w obliczu „systemu” są tylko dwójką przybłędów, których brawura zakłóca rutynę biznesu.

Roberto jest absolwentem uniwersytetu i chce zacząć pracę. Franco daje mu wielką szansę, stałe zatrudnienie i perspektywę bardzo dobrych zarobków, oferuje mu pracę w branży toksycznych odpadów. Rzeczywistość okazuję się jednak zbyt trudna do zaakceptowania dla Roberta.

Pasquale jest utalentowanym krawcem, który potajemnie pracuje dla małego przedsiębiorstwa wykonującego prace na zlecenie przemysłu haute couture. Chińscy rywale dają mu możliwość przekazania sekretów jego branży. Pasquale poddaje się pokusie, narażając swoje życie na niebezpieczeństwo.

Obsada:

Salvatore Abruzzese :Totò
Salvatore Ruocco :Boxer
Gianfelice Imparato on Ciro
Maria Nazionale :Maria
Toni Servillo :Franco

Info:

Format : DivX
Format/Info : Hack of AVI
File size : 683 MiB
Duration : 2h 11mn
Overal bit rate : 878 Kbps

Video
Format : MPEG-3 Visual
Format profile : Streaming [email protected]
Format settings, BVOP : Yes
Format settings, QPel : No
Format settings, GMC : 0 warppoint
Format settings, Matrix : Custom
Muxing mode : Packet Bitstream
Codec ID : DX50
Codec ID/Hint : DivX 5
Duration : 1h 48mn
Bit rate : 741 Kbps
Width : 720 pixels
Height : 328 pixels
Display aspect ratio : 1.698
Frame rate : 25.000 fps
Resolution : 8 bits
Colorimetry : 4:2:0
Scan type : Progressive
Bits/(Pixel*Frame) : 0.097
Stream size : 576 MiB

Audio
Format : MPEG Audio
Format version : Version 1 / Layer 3
Codec ID : 55
Codec ID/Hint : MP3
Duration : 1h 48mn
Bit rate mode : CBR
Bit rate : 128 Kbps
Minimum bit rate : 128 Kbps
Channel(s) : 2 channels
Sampling rate : 48.0 KHz
Resolution : 16 bits
Stream size : 99.6 MiB

Rozmiar: 684.29 MiB

sprawdź horoskop sprawdź horoskop