Inter Mission (2003) [DVDRip.XviD] [Lektor PL] torrent, chomikuj

Baner Torrentos
Sprawdź już teraz! (LINK)

Inter Mission (2003)

gatunek: Dramat, Czarna komedia
produkcja: Irlandia, Wielka Brytania
premiera: 18 marca 2005 (Polska) 29 sierpnia 2003 (świat)
reżyseria: John Crowley
scenariusz: Mark O'Rowe

Filmweb: http://www.filmweb.pl/Intermission

Opis:

Bohaterowie wielu przeplatających się ze sobą historii na różne sposoby próbują odnaleźć w swoim życiu miłość. Są wśród nich przestępcy i marzyciele, policjanci i złodzieje, przyjaciele, kochankowie i wrogowie. To, co ich spotyka, bywa komiczne i romantyczne, zaskakujące i niepokojące.

Obsada:

Colin Farrell – Lehiff
Shirley Henderson – Sally
Cillian Murphy – John
Barbara Bergin – Karen

Info:

Format : AVI
Format/Info : Audio Video Interleave
Format profile : OpenDML
File size : 1.88 GiB
Duration : 1h 42mn
Overall bit rate : 2 631 Kbps
Writing application : Lavf52.94.0

Video
ID : 0
Format : MPEG-4 Visual
Format profile : [email protected]
Format settings, BVOP : No
Format settings, QPel : No
Format settings, GMC : No warppoints
Format settings, Matrix : Default (H.263)
Codec ID : XVID
Codec ID/Hint : XviD
Duration : 1h 42mn
Bit rate : 2 396 Kbps
Width : 1 024 pixels
Height : 576 pixels
Display aspect ratio : 16:9
Frame rate : 25.000 fps
Color space : YUV
Chroma subsampling : 4:2:0
Bit depth : 8 bits
Scan type : Progressive
Compression mode : Lossy
Bits/(Pixel*Frame) : 0.162
Stream size : 1.71 GiB (91%)
Writing library : XviD 1.2.1 (UTC 2008-12-04)

Audio
ID : 1
Format : AC-3
Format/Info : Audio Coding 3
Mode extension : CM (complete main)
Format settings, Endianness : Big
Codec ID : 2000
Duration : 1h 42mn
Bit rate mode : Constant
Bit rate : 224 Kbps
Channel(s) : 2 channels
Channel positions : Front: L R
Sampling rate : 48.0 KHz
Bit depth : 16 bits
Compression mode : Lossy
Stream size : 164 MiB (9%)
Alignment : Aligned on interleaves
Interleave, duration : 32 ms (0.80 video frame)

Rozmiar: 1.88 GiB

sprawdź horoskop sprawdź horoskop