Krabat 2008 [DVDRIP.XviD] torrent, chomikuj

Baner Torrentos
Sprawdź już teraz! (LINK)

Tytuł: Krabat / Krabat

Produkcja: Niemcy

Gatunek: Fantasy, Dramat

Czas trwania: 115

Premiera: 09.10.2008 – Świat

Reżyseria: Marco Kreuzpaintner

Scenariusz: Marco Kreuzpaintner, Michael Gutmann

Aktorzy: David Kross, Christian Redl, Robert Stadlober, Paula Kalenberg

OPIS: Scenariusz obrazu powstał w oparciu o wydaną w 1971 roku powieść Otfrieda Preusslera „The Curse of the Darkling Mill” – adaptację XVII-wiecznej legendy. Jest to historia chłopca, który uczy się sekretów czarnej magii od złego czarnoksiężnika. Opowieść była już wcześniej przenoszona na duży ekran. W 1975 roku w NRD powstał „Die Schwarze Muehle” a dwa lata później zrealizowano animowany „Krabat”.

Video

Format : MPEG-4 Visual

Format profile : Streaming [email protected]

Codec ID : DX50

Codec ID/Hint : DivX 5

Duration : 1h 59mn

Bit rate : 682 Kbps

Width : 720 pixels

Height : 320 pixels

Display aspect ratio : 2.25

Frame rate : 23.976 fps

Resolution : 24 bits

Colorimetry : 4:2:0

Scan type : Progressive

Bits/(Pixel*Frame) : 0.123

Stream size : 585 MiB (83%)

Writing library : XviD

Audio

Language : German

Format : MPEG Audio

Format version : Version 1

Format profile : Layer 3

Codec ID : 55

Codec ID/Hint : MP3

Duration : 1h 59mn

Bit rate mode : Constant

Bit rate : 128 Kbps

Minimum bit rate : 128 Kbps

Channel(s) : 2 channels

Sampling rate : 48.0 KHz

Resolution : 16 bits

Video delay : 96ms

Stream size : 110 MiB (16%)

Writing library : LAME3.98r

Encoding settings : CBR

Krabat.2008.DVDRIP.XviD-ZEKTORM

Rozmiar: 702.49 MiB

sprawdź horoskop sprawdź horoskop