Lśnienie – The Shining *1980* [DVDRip.XviD] [ENG] torrent, chomikuj

Baner Torrentos
Sprawdź już teraz! (LINK)

produkcja: USA , Wielka Brytania
gatunek: Horror
data premiery: 1990-12-31 (Polska) , 1980-05-23 (Świat)
zapraszamy na elitetorrent.pl
scenariusz: Stanley Kubrick , Diane Johnson
reżyseria: Stanley Kubrick
zdjęcia: John Alcott
muzyka: Krzysztof Penderecki
czas trwania: 146

Jack Torrance (Jack Nicholson) pracuje jako kurator w hotelu Overlook w górach stanu Colorado. Hotel jest zamknięty na zimę i Jack z rodziną są jedynymi mieszkańcami w budynku. Kiedy burze śnieżne blokują rodzinę Torrance'ów w hotelu Danny, syn Jacka, który ma nadprzyrodzone telepatyczne zdolności odkrywa, że hotel jest nawiedzony i duchy powoli doprowadzają jego ojca do obłędu. Kiedy Jack spotyka ducha pana Grady, poprzedniego kuratora hotelu, sytuacja staje się coraz groźniejsza.

Obsada:

Jack Nicholson…Jack Torrance
Shelley Duvall…Winifred ' Wendy' Torrance
Danny Lloyd…Danny Torrance
Scatman Crothers…Dick Hallorann
Barry Nelson…Stuart Ullman
Philip Stone…Delbert Grady
Joe Turkel…Lloyd

INFO:

Video
Format : MPEG-4 Visual
Format profile : [email protected]
Format settings, BVOP : No
Format settings, QPel : No
Format settings, GMC : No warppoints
Format settings, Matrix : Default
Codec ID : XVID
Codec ID/Hint : XviD
Duration : 2h 23mn
Bit rate : 1226 Kbps
Width : 624 pixels
Height : 352 pixels
Display aspect ratio : 16/9
Frame rate : 23.976 fps
Resolution : 8 bits
Colorimetry : 4:2:0
Scan type : Progressive
Bits/(Pixel*Frame) : 0.233
Stream size : 1.23 GiB
Writing library : XviD 1.1.2 (UTC 2006-11-01)

Audio
Format : MPEG Audio
Format version : Version 1
Format profile : Layer 3
Codec ID : 55
Codec ID/Hint : MP3
Duration : 2h 23mn
Bit rate mode : Constant
Bit rate : 128 Kbps
Channel(s) : 2 channels
Sampling rate : 48.0 KHz
Resolution : 16 bits
Stream size : 132 MiB
Writing library : LAME3.97
Language : english

Rozmiar: 1.39 GiB

sprawdź horoskop sprawdź horoskop