Meteor Apocalypse 2010 [DVDRip.XviD] torrent, chomikuj

Baner Torrentos
Sprawdź już teraz! (LINK)

Produkcja: USA
Gatunek: Sci-Fi
Premiera: 23.02.2010 – Świat
Reżyseria: Micho Rutare
Scenariusz: Brian Brinkman, Micho Rutare

OPIS:
Gigantyczny meteor zbliża się do Ziemi. Gdy tylko wchodzi w orbitę okołoziemską, to zaczyna rozpadać się na wiele mniejszych struktur, które spadają na naszą planetę. Zagłada wydaje się być nieunikniona.

obsada:
Joe Lando, Claudia Christian, Cooper Harris, Brendan Bradley

Format: AVI
Format/Info: Audio Video Interleave
File size: 699 MiB
Duration: 1h 28mn
Overall bit rate: 1 109 Kbps
Writing application: Nandub v1.0rc2
Writing library: Nandub build 1852/release

Video
ID: 0
Format: MPEG-4 Visual
Format profile: Advanced [email protected]
Format settings, BVOP: No
Format settings, QPel: No
Format settings, GMC: No warppoints
Format settings, Matrix: Default (H.263)
Codec ID: XVID
Codec ID/Hint: XviD
Duration: 1h 28mn
Bit rate: 967 Kbps
Width: 592 pixels
Height: 320 pixels
Display aspect ratio: 1.850
Frame rate: 23.976 fps
Resolution: 8 bits
Colorimetry: 4:2:0
Scan type: Progressive
Bits/(Pixel*Frame): 0.213
Stream size: 609 MiB (87%)
Writing library: XviD 1.1.2 (UTC 2006-11-01)

Audio
ID: 1
Format: MPEG Audio
Format version: Version 1
Format profile: Layer 3
Codec ID: 55
Codec ID/Hint: MP3
Duration: 1h 28mn
Bit rate mode: Variable
Bit rate: 129 Kbps
Minimum bit rate: 64.0 Kbps
Channel(s): 2 channels
Sampling rate: 48.0 KHz
Stream size: 81.6 MiB (12%)
Alignment: Aligned on interleaves
Interleave, duration: 24 ms (0.58 video frame)
Interleave, preload duration: 249 ms
Writing library: LAME3.95
Encoding settings: -m s -V 5 -q 3 -lowpass 17 –vbr-old -b 64

http://www.imdb.com/title/tt1564571/

ScreenCaps:
http://i40.tinypic.com/2dgq6vo.jpg
http://i33.tinypic.com/1z6a79z.jpg
http://i43.tinypic.com/dr2lnp.jpg

Rozmiar: 703.85 MiB

sprawdź horoskop sprawdź horoskop