Mordercza Droga – Road Kill *2010* [DVDRiP.XviD] [ENG] torrent, chomikuj

Baner Torrentos
Sprawdź już teraz! (LINK)

Produkcja…..: Australia
Gatunek…….: Horror, Thriller, Sci-Fi
Data premiery.: 28.05.2010
Reżyseria…..: Dean Francis
Scenariusz….: Clive Hopkins
Czas trwania..: 90 min.

Opis :
Grupa przyjaciół wyrusza w podróż po Australii, która z biegiem czasu przemienia się w prawdziwy koszmar. Wszystko za sprawą tajemniczego tira, który od wielu godzin podąża za samochodem urlopowiczów.

Obsada :
Bob Morley … Craig
Sophie Lowe … Nina
Georgina Haig … Liz
Xavier Samuel … Marcus
David Argue … Psycho

Dane Techniczne :
Format : AVI
Format/Info : Audio Video Interleave
File size : 701 MiB
Duration : 1h 30mn
Overall bit rate : 1 087 Kbps
Writing application : VirtualDubMod 1.5.10.2 (build 2540/release)
Writing library : VirtualDubMod build 2540/release
Video
ID : 0
Format : MPEG-4 Visual
Format profile : [email protected]
Format settings, BVOP : Yes
Format settings, QPel : No
Format settings, GMC : No warppoints
Format settings, Matrix : Default (H.263)
Codec ID : XVID
Codec ID/Hint : XviD
Duration : 1h 30mn
Bit rate : 945 Kbps
Width : 624 pixels
Height : 352 pixels
Display aspect ratio : 16:9
Frame rate : 29.970 fps
Resolution : 24 bits
Colorimetry : 4:2:0
Scan type : Progressive
Bits/(Pixel*Frame) : 0.144
Stream size : 610 MiB (87%)
Writing library : XviD 1.2.1 (U*censored* 2008-12-04)
Audio
ID : 1
Format : MPEG Audio
Format version : Version 1
Format profile : Layer 3
Format settings, Mode : Joint stereo / MS Stereo
Codec ID : 55
Codec ID/Hint : MP3
Duration : 1h 30mn
Bit rate mode : Constant
Bit rate : 32.0 Kbps
Channel(s) : 2 channels
Sampling rate : 48.0 KHz
Resolution : 16 bits
Stream size : 82.3 MiB (12%)
Alignment : Aligned on interleaves
Interleave, duration : 24 ms (0.72 video frame)
Interleave, preload duration : 126 ms
Writing library : LAME3.98

Rozmiar: 702.84 MiB

sprawdź horoskop sprawdź horoskop