Punisher: Strefa Wojny – Punisher: War Zone *2008* [DVDRIP.XviD] torrent, chomikuj

Baner Torrentos
Sprawdź już teraz! (LINK)

produkcja: Kanada, Niemcy, USA
gatunek: Sensacyjny
data premiery: 2008-12-05 (Świat)
reżyseria: Lexi Alexander
scenariusz: Arthur Marcum, Nick Santora
zdjęcia: Steve Gainer
czas trwania: 107 minut

OPIS:

Punisher: Strefa Wojny to kolejna już historia popularnego komiksowego bohatera ukazana w formie filmowej. Po raz kolejny odziany w kamizelkę z trupią czaszką Frank Castle prowadzi typową dla siebie krucjatę ze złem i terrorem. Zgodnie z zasadą strzelać do wszystkiego co się rusza i nie jest po naszej stronie zwalcza ogień ogniem nie zwracając uwagi na takie drobiazgi jak prawa przestępcy, prawo do uczciwego procesu, itd. Tym razem na przeciw naszego bohatera staje cała armia przestępców prowadzona do boju przez człowieka o oszpeconej twarzy – demonicznego szaleńca o pseudonimie Jigsaw.

Obsada:

Ray Stevenson … Frank Castle
Dominic West … Billy Russoti / Jigsaw
Doug Hutchison … Loony Bin Jim
Colin Salmon … Paul Budiansky
Wayne Knight … Micro
Dash Mihok … Martin Soap
Julie Benz … Angela Donatelli
Stephanie Janusauskas … Grace
Mark Camacho … Pittsy
Romano Orzari … Nicky Donatelli
Keram Malicki-Sánchez … Ink
Larry Day … Agent Miller
Ron Lea … Captain Ross
Tony Calabretta … Saffiotti
T.J. Storm … Maginty

FileINFO:

Title : Punisher: War Zone
Year : 2008
Genre : Action | Crime | Drama | Thriller
iMDB Rate : User Rating: 6.8/10 4,348 votes
iMDB URL : http://www.imdb.com/title/tt0450314/

Complete name : Punisher.War.Zone.2008.DVDRIP.XviD-ZEKTORM.avi
Format : AVI
File size : 701 MiB
Duration : 1h 42mn
Overall bit rate : 954 Kbps
Source : DVD NTSC

Video
Format : MPEG-4 Visual
Format profile : Streaming [email protected]
Codec ID : DX50
Codec ID/Hint : DivX 5
Duration : 1h 42mn
Bit rate : 819 Kbps
Width : 720 pixels
Height : 304 pixels
Display aspect ratio : 2.35
Frame rate : 23.976 fps
Resolution : 24 bits
Colorimetry : 4:2:0
Scan type : Progressive
Bits/(Pixel*Frame) : 0.156
Stream size : 602 MiB (86%)
Writing library : XviD

Audio
Format : MPEG Audio
Format version : Version 1
Format profile : Layer 3
Codec ID : 55
Codec ID/Hint : MP3
Duration : 1h 42mn
Bit rate mode : Constant
Bit rate : 128 Kbps
Minimum bit rate : 128 Kbps
Channel(s) : 2 channels
Sampling rate : 48.0 KHz
Resolution : 16 bits
Stream size : 94.0 MiB (13%)
Writing library : LAME3.98r
Encoding settings : CBR

Rozmiar: 701.06 MiB

sprawdź horoskop sprawdź horoskop