Robin Hood *2010* [R5.XViD] [ENG] torrent, chomikuj

Baner Torrentos
Sprawdź już teraz! (LINK)

Robin Hood 2010 R5 AC3 XViD – IMAGiNE

Tytuł: Robin Hood
Produkcja: USA
Gatunek: Dramat, Historyczny, Kostiumowy
Czas trwania: 131 minut
Premiera: 14.05.2010 – Polska, 14.05.2010 – Świat
Reżyseria: Ridley Scott
Scenariusz: Brian Helgeland

Opis:

Najnowszy film Ridleya Scotta. Średniowieczna Anglia. Doświadczony łucznik Robin Hood służy w armii króla Ryszarda walczącego z Francuzami. Po jego śmierci udaje się do Nottingham, gdzie pod rządami despotycznego szeryfa szerzy się korupcja. Zakochany w Lady Marion Robin postawia uwolnić wioskę spod władzy szeryfa i zdobyć rękę ukochanej.

Obsada:

Russell Crowe,
Cate Blanchett,
Max von Sydow,
William Hurt

IMDb RATING: 7.0/10 (27,345 votes)

Runtime…….:2h 29mn
Language……….:ENGLISH
Subtitles………:ENG WHEN NEEDED

Video
Format : MPEG-4 Visual
Format profile : Streaming [email protected]
Format settings, BVOP : Yes
Format settings, QPel : No
Format settings, GMC : No warppoints
Format settings, Matrix : Default
Muxing mode : Packed bitstream
Codec ID : XVID
Codec ID/Hint : XviD
Duration : 2h 29mn
Bit rate : 1 833 Kbps
Width : 720 pixels
Height : 304 pixels
Display aspect ratio : 2.35
Frame rate : 25.000 fps
Resolution : 24 bits
Colorimetry : 4:2:0
Scan type : Progressive
Bits/(Pixel*Frame) : 0.335
Stream size : 1.91 GiB (82%)
Writing library : XviD 50

Audio
Format : AC-3
Format/Info : Audio Coding 3
Codec ID : 2000
Bit rate mode : Constant
Bit rate : 384 Kbps
Channel(s) : 6 channels
Channel positions : Front: L C R, Surround: L R, LFE
Sampling rate : 48.0 KHz
Stream size : 411 MiB (17%)
Alignment : Aligned on interleaves
Interleave, duration : 40 ms (1.00 video frame)
Interleave, preload duration : 512 ms

Rozmiar: 2.35 GiB

sprawdź horoskop sprawdź horoskop