Slumber Party Massacre 3 (1990) [DVDRip] [ENG] torrent, chomikuj

Baner Torrentos
Sprawdź już teraz! (LINK)

reżyseria: Sally Mattison
scenariusz: Catherine Cyran
premiera: 7 września 1990 (Świat)
produkcja: USA
gatunek: Horror

http://www.filmweb.pl/film/Slumber+Party+Massacre+III-1990-210958

Właśnie zaczęły się wakacje. Grupa przyjaciół spędza czas na plaży grając w siatkówkę. Jako że rodziców jednej z dziewczyn nie ma w domu, przyjaciółki postanawiają urządzić sobie wieczorem małą imprezę, zaś ich chłopcy wpadają na pomysł, żeby je postraszyć. Tak więc impreza się zaczyna, jednak dość szybko nastolatkowie zaczynają znikać. Okazuje się, że oprócz kilku dowcipnisiów, na imprezie pojawił się morderca.

Type : Movie
Format : AVI
Format/Info : Audio Video Interleave
File size : 800 MiB
Duration : 1h 24mn
Source : Dvd NTSC
Genre : Horror
IMDB Link : http://www.imdb.com/title/tt0100639/
Rating : 2.2/10

Video
Format : MPEG-4 Visual
Format profile : Streaming [email protected]
Format settings, BVOP : Yes
Format settings, QPel : No
Format settings, GMC : No warppoints
Format settings, Matrix : Default
Muxing mode : Packet Bitstream
Codec ID : XVID
Codec ID/Hint : XviD
Duration : 1h 24mn
Bit rate : 1191 Kbps
Width : 544 pixels
Height : 400 pixels
Display aspect ratio : 4/3
Frame rate : 23.976 fps
Resolution : 8 bits
Colorimetry : 4:2:0
Scan type : Progressive
Bits/(Pixel*Frame) : 0.228
Stream size : 717 MiB (90%)

Audio
Format : MPEG Audio
Format version : Version 1
Format profile : Layer 3
Codec ID : 55
Codec ID/Hint : MP3
Duration : 1h 24mn
Bit rate mode : Constant
Bit rate : 128 Kbps
Minimum bit rate : 128 Kbps
Channel(s) : 2 channels
Sampling rate : 48.0 KHz
Resolution : 16 bits
Stream size : 77.0 MiB (10%)
Alignment : Aligned on interleaves
Interleave, duration : 42 ms (1.00 video frame)
Interleave, preload duration : 504 ms
Writing library : LAME3.97
Encoding settings : CBR

Rozmiar: 799.61 MiB

sprawdź horoskop sprawdź horoskop