Tropiciel – Pathfinder *2007* [DVDRip.DivX] torrent, chomikuj

Baner Torrentos
Sprawdź już teraz! (LINK)

produkcja: Kanada , USA
gatunek: Przygodowy
data premiery: 2007-06-01 (Polska) , 2007-01-11 (Świat)
reżyseria: Marcus Nispel
scenariusz: Laeta Kalogridis
zdjęcia: Daniel Pearl
muzyka: Jonathan Elias
czas trwania: 100

Oddział Wikingów ląduje na wybrzeżu Ameryki. W zamieszaniu bitewnym zostawiają chłopca, który wychowuje się wśród Indian. Kiedy po latach Skandynawowie powracają, naturalizowany Indianin ma zamiar przytrzeć im rogów.

Obsada:

Karl Urban…Duch
Jay Tavare…Czarne Skrzydło
Ralf Moeller…Ulfar
Clancy Brown…Gunnar
Moon Bloodgood…StarFire

INFO:

Video
Format : MPEG-4 Visual
Format settings, BVOP : Yes
Format settings, QPel : No
Format settings, GMC : No warppoints
Format settings, Matrix : Default
Codec ID : DX50
Codec ID/Hint : DivX 5
Duration : 1h 47mn
Bit rate : 1 300 Kbps
Width : 720 pixels
Height : 304 pixels
Display aspect ratio : 2.35
Frame rate : 23.976 fps
Resolution : 24 bits
Colorimetry : 4:2:0
Scan type : Progressive
Bits/(Pixel*Frame) : 0.248
Stream size : 997 MiB (90%)
Title : Video
Writing library : DivX 6.8.2 (UTC 2008-05-17)

Audio
Format : MPEG Audio
Format version : Version 1
Format profile : Layer 3
Codec ID : 55
Codec ID/Hint : MP3
Duration : 1h 47mn
Bit rate mode : Constant
Bit rate : 128 Kbps
Channel(s) : 2 channels
Sampling rate : 48.0 KHz
Resolution : 16 bits
Stream size : 98.1 MiB (9%)
Alignment : Split accross interleaves
Interleave, duration : 42 ms (1.00 video frame)
Interleave, preload duration : 500 ms
Title : Audio
Writing library : LAME3.92

Rozmiar: 1.08 GiB

sprawdź horoskop sprawdź horoskop