Uliczne psy – Road Dogz 2000 [DVDRip.XViD] [Lektor PL] torrent, chomikuj

Baner Torrentos
Sprawdź już teraz! (LINK)

produkcja: USA
gatunek: Dramat, Sensacyjny
reżyseria Alfredo Ramos
scenariusz Alfredo Ramos
zdjęcia Matt Faw
muzyka Sebastian Arocha-Morton
czas trwania: 90 min.

Drogi trzech przyjaciół – Latynosów ze wschodnich przedmieść Los Angeles – rozchodzą się. Każdy z nich wybiera inny sposób na życie. Jeden, aby wspomóc finansowo niepełnosprawnego ojca przyjmuje nisko płatną pracę, drugi wiąże się z lokalnym gangsterem i handluje dla niego narkotykami, a trzeci z „psa na baby” staje się odpowiedzialnym ojcem rodziny. Ale gdy jeden z nich znajduje się w niebezpieczeństwie, jednoczą się ponownie, nie zważając na ryzyko.

Priscilla Garita: Lucy
Mike Gomez: Antonio Carrasco
Pete Leal: Pan Ochoa
Ruben Moreno: Abuelito
Yelba Osorio: Chespi
Jenny Gago: Ana Carrasco
Rudy Ramos: Canto
Emilio Rivera: Duży Joe
Danny De La Paz: Torneo
Jacob Vargas: Danny Pacheco
Greg Serano: Alfonso Carrasco
Clifton Collins Jr.: Raymo Serrano

Format : AVI
Format/Info : Audio Video Interleave
File size : 700 MiB
Duration : 1h 31mn
Overall bit rate mode : Variable
Overall bit rate : 1 067 Kbps
Writing application : VirtualDubMod 1.5.10.1 (build 2439/release)
Writing library : VirtualDubMod build 2439/release

Video
ID : 0
Format : MPEG-4 Visual
Format profile : Advanced [email protected]
Format settings, BVOP : 2
Format settings, QPel : No
Format settings, GMC : No warppoints
Format settings, Matrix : Default (H.263)
Muxing mode : Packed bitstream
Codec ID : XVID
Codec ID/Hint : XviD
Duration : 1h 31mn
Bit rate : 886 Kbps
Width : 608 pixels
Height : 352 pixels
Display aspect ratio : 16:9
Frame rate : 25.000 fps
Color space : YUV
Chroma subsampling : 4:2:0
Bit depth : 8 bits
Scan type : Progressive
Compression mode : Lossy
Bits/(Pixel*Frame) : 0.166
Stream size : 581 MiB (83%)
Writing library : XviD 1.0.3 (UTC 2004-12-20)

Audio
ID : 1
Format : MPEG Audio
Format version : Version 1
Format profile : Layer 3
Codec ID : 55
Codec ID/Hint : MP3
Duration : 1h 31mn
Bit rate mode : Variable
Bit rate : 168 Kbps
Minimum bit rate : 128 Kbps
Channel(s) : 2 channels
Sampling rate : 48.0 KHz
Compression mode : Lossy
Stream size : 110 MiB (16%)
Alignment : Aligned on interleaves
Interleave, duration : 24 ms (0.60 video frame)
Interleave, preload duration : 378 ms
Writing library : LAME3.92
Encoding settings : -m s -V 0 -q 2 -lowpass 20.4 –vbr-old -b 128

Rozmiar: 700.18 MiB

sprawdź horoskop sprawdź horoskop