Whos Your Daddy 2003 (STV.UNRATED) [DVDRip.XviD] torrent, chomikuj

Baner Torrentos
Sprawdź już teraz! (LINK)

Produkcja…..: USA
Gatunek…….: Komedia
Data premiery.: 2004-01-07 (Świat)
Reżyseria…..: Andy Fickman
Scenariusz….: Andy Fickman , Jack Sekowski
Zdjęcia…….: Nathan Hope
Muzyka……..: Nathan Wang
Czas trwania..: 105 min.

Opis :
Zwykłe , nudne i statyczne życie zwykłego, amerykańskiego nastolatka z Ohio – Chrisa Hughesa – zmienia się drastycznie kiedy staje się niespodziewanie …. właścicielem nieźle prosperującego magazynu pornograficznego i bynajmniej nie pojedynczego egzemplarza, a całej firmy… Taka własność może wprowadzić naprawdę dużo zamieszania….
Chris Hughes to młody chłopak zupełnie niezauważany wśród szkolnych rówieśników. Pewnego dnia dowiaduje się,
że został oddany do adopcji a jego prawdziwi rodzice (król i królowa pornografii) właśnie zmarli i
zostawili mu w spadku dorobek swojego życia – kilkadziesiat milionów dolarów i czasopismo , które jest najlepiej sprzedającym sie na rynku. Z biegiem czasu zafascynowany nowym życiem chłopak traci swoich starych i nowych przyjaciół oraz cały spadek, a to za sprawą jego chciwego wujka Duncana i prawnika, będących w zmowie, którzy kiedyś byli doradcami zmarłego ojca, a teraz robią wszystko by odebrać chłopakowi spadek.

Obsada :
Brandon Davis…Chris Hughes
Justin Berfield…Danny Hughes
Gary Blumsack…Hector Conchita Consuela
Colleen Camp…Beverly Hughes
Kadeem Hardison…Brookes
William Atherton…wujek Duncan
Ryan Bittle…Hudson Reed
Shera Danese…Honey Mack
Ali Landry…Elissa
Andrew Leeds…Mitch
Jolie Jenkins….ET Reporter
Christine Lakin…Kate Reeves
Samantha Levin…Mandy
Marnette Patterson..Brittany Van Horn
Robert Torti…Michael Hunt

Video
Format : MPEG-4 Visual
Format profile : [email protected]
Format settings, BVOP : Yes
Format settings, QPel : No
Format settings, GMC : No warppoints
Format settings, Matrix : Default
Codec ID : XVID
Codec ID/Hint : XviD
Duration : 1h 49mn
Bit rate : 754 Kbps
Width : 544 pixels
Height : 304 pixels
Display aspect ratio : 16/9
Frame rate : 23.976 fps
Resolution : 24 bits
Colorimetry : 4:2:0
Scan type : Progressive
Bits (Pixel Frame) : 0.190
Stream size : 589 MiB (84%)
Writing library : XviD 1.0.0 (UTC 2004-05-09)
Audio
Format : MPEG Audio
Format version : Version 1
Format profile : Layer 3
Codec ID : 55
Codec ID/Hint : MP3
Duration : 1h 49mn
Bit rate mode : Variable
Bit rate : 129 Kbps
Minimum bit rate : 128 Kbps
Channel(s) : 2 channels
Sampling rate : 48.0 KHz
Resolution : 16 bits
Stream size : 101 MiB (14%)
Alignment : Aligned on interleaves
Interleave, duration : 24 ms (0.58 video frame)
Interleave, preload duration : 148 ms
Title : who
Writing library : LAME3.93
Encoding settings : ABR

http://www.youtube.com/watch?v=PMwzr7KzICE

Rozmiar: 700.40 MiB

sprawdź horoskop sprawdź horoskop