WolfCreek [2005] [DvdRip.Xvid] torrent, chomikuj

Baner Torrentos
Sprawdź już teraz! (LINK)

Wolf Creek

produkcja: Australia

gatunek: Horror

data premiery: 2005-01-20 (Świat)

reżyseria Greg McLean

scenariusz Greg McLean

zdjęcia Brandon Trost

muzyka Frank Tetaz

czas trwania: 99

Grupa przyjaciół wybiera się w podróż po pustych australijskich drogach. Ich auto odmawia posłuszeństwa w okolicy o nazwie „Wolf Creek”. Bezsilni, cieszą się na widok nieznajomego oferującego pomoc. Ich koszmar rozpoczyna się, gdy mężczyzna ujawnia swą prawdziwą naturę…

aktorzy

John Jarratt

Jenny Starwall : Szwedzka turystka

Nathan Phillips

Guy Petersen : Szwedzki turysta

Kestie Morassi

Cassandra Magrath

Gordon Poole : Bileter

Andy McPhee : Bazza

Aaron Sterns : Kumpel Bazzy

Teresa Palmer : Dziewczyna na imprezie

Guy O'Donnell : Sprzedawca samochodów

Peter Alchin : Policjant

Video

Format : MPEG-4 Visual

Format profile : Streaming [email protected]

Format settings, BVOP : Yes

Format settings, QPel : No

Format settings, GMC : No warppoints

Format settings, Matrix : Default (H.263)

Muxing mode : Packed bitstream

Codec ID : XVID

Codec ID/Hint : XviD

Duration : 1h 34mn

Bit rate : 895 Kbps

Width : 720 pixels

Height : 384 pixels

Display aspect ratio : 1.875

Frame rate : 25.000 fps

Resolution : 24 bits

Colorimetry : 4:2:0

Scan type : Progressive

Bits/(Pixel*Frame) : 0.129

Stream size : 606 MiB (86%)

Writing library : XviD 1.2.1 (UTC 2008-12-04)

Audio

Format : MPEG Audio

Format version : Version 1

Format profile : Layer 3

Codec ID : 55

Codec ID/Hint : MP3

Duration : 1h 34mn

Bit rate mode : Constant

Bit rate : 128 Kbps

Channel(s) : 2 channels

Sampling rate : 44.1 KHz

Resolution : 16 bits

Stream size : 86.7 MiB (12%)

Alignment : Aligned on interleaves

Interleave, duration : 26 ms (0.65 video frame)

Interleave, preload duration : 522 ms

WolfCreek{DvdRip.Xvid}

Rozmiar: 701.35 MiB

sprawdź horoskop sprawdź horoskop