Złoto McKenny – Mackenna’s Gold (1969) [DVDRip.x264] [Napisy PL] torrent, chomikuj

Baner Torrentos
Sprawdź już teraz! (LINK)

produkcja: USA
gatunek: Western
data premiery: 1969-03-18 (Świat)
reżyseria J. Lee Thompson
scenariusz Carl Foreman
zdjęcia Joseph MacDonald
muzyka Quincy Jones
czas trwania: 123

Obsada:
Telly Savalas,
Gregory Peck,
Omar Sharif

Dziki Zachód, koniec XIX stulecia. Szeryf Sam Mackenna (Gregory Peck) jest jedynym człowiekiem, który zna drogę do miejsca, gdzie ukryto bezcenny transport złota. W czasie podróży Mackenna zostaje pojmany przez Colorado (Omar Sharif), brutalnego bandytę z Meksyku, który od dawna marzył, by go zabić. Teraz jednak Colorado musi zapomnieć o zemście, bo jeśli chce, by Mackenna doprowadził go do złota, musi darować mu życie. Po drodze dołączają do nich dezerterzy, okrutni Indianie, bezwzględni zabójcy i „dżentelmen z miasta”. W miarę, jak zbliżają się do kanionu, w którym ukryto skarb, wszyscy poza Mackenną zapadają na nieuleczalną chorobę – gorączkę złota. „Złoto Mackenny” uchodzi powszechnie za jeden z najbardziej widowiskowych westernów w dziejach kina.

http://www.filmweb.pl/f31308/Z%C5%82oto+MacKenny,1969

Format : Matroska
File size : 903 MiB
Duration : 2h 2mn
Overall bit rate : 1 028 Kbps
Writing application : HandBrake 0.9.4

Video
ID : 1
Format : AVC
Format/Info : Advanced Video Codec
Format profile : [email protected]
Format settings, CABAC : Yes
Format settings, ReFrames : 3 frames
Muxing mode : Container [email protected]
Codec ID : V_MPEG4/ISO/AVC
Duration : 2h 2mn
Bit rate : 559 Kbps
Nominal bit rate : 573 Kbps
Width : 720 pixels
Height : 576 pixels
Display aspect ratio : 2.35
Frame rate : 25.000 fps
Standard : PAL
Resolution : 24 bits
Colorimetry : 4:2:0
Scan type : Progressive
Bits/(Pixel*Frame) : 0.054
Stream size : 492 MiB (54%)
Writing library : x264 core 79
Encoding settings : cabac=1 / ref=3 / deblock=1:0:0 / analyse=0x3:0x113 / me=hex / subme=7 / psy=1 / psy_rd=1.0:0.0 / mixed_ref=1 / me_range=16 / chroma_me=1 / trellis=1 / 8x8dct=1 / cqm=0 / deadzone=21,11 / chroma_qp_offset=-2 / threads=3 / nr=0 / decimate=1 / mbaff=0 / constrained_intra=0 / bframes=3 / b_pyramid=0 / b_adapt=1 / b_bias=0 / direct=1 / wpredb=1 / wpredp=2 / keyint=250 / keyint_min=25 / scenecut=40 / rc_lookahead=40 / rc=2pass / mbtree=1 / bitrate=573 / ratetol=1.0 / qcomp=0.60 / qpmin=10 / qpmax=51 / qpstep=4 / cplxblur=20.0 / qblur=0.5 / ip_ratio=1.40 / aq=1:1.00

Audio
ID : 2
Format : AC-3
Format/Info : Audio Coding 3
Codec ID : A_AC3
Duration : 2h 2mn
Bit rate mode : Constant
Bit rate : 448 Kbps
Channel(s) : 6 channels
Channel positions : Front: L C R, Surround: L R, LFE
Sampling rate : 48.0 KHz
Stream size : 394 MiB (44%)
Language : English

Text
ID : 3
Format : VobSub
Codec ID : S_VOBSUB
Codec ID/Info : The same subtitle format used on DVDs
Language : Polish

Rozmiar: 903.20 MiB

sprawdź horoskop sprawdź horoskop